#TITLE:Damage;
#SUBTITLE:Trance Mix;
#ARTIST:Plummet;
#TITLETRANSLIT:;
#SUBTITLETRANSLIT:;
#ARTISTTRANSLIT:;
#CREDIT:Tanean;
#BANNER:Damage1.jpg;
#BACKGROUND:Damage.jpg;
#LYRICSPATH:;
#CDTITLE:Prostar studios.png;
#MUSIC:Damage.mp3;
#OFFSET:-0.205;
#SAMPLESTART:54.920;
#SAMPLELENGTH:13.000;
#SELECTABLE:YES;
#BPMS:0.000=133.333;
#STOPS:;
#BGCHANGES:;
// cache tags:
#FIRSTBEAT:4.000;
#LASTBEAT:258.500;
#SONGFILENAME:Songs/Music V.I.P ^_^/Damage/Damage.sm;
#HASMUSIC:1;
#HASBANNER:1;
#MUSICLENGTH:242.241;
// end cache tags

//---------------dance-double - BASIC----------------
#NOTES:
     dance-double:
     BASIC:
     Easy:
     2:
     0.195,0.279,0.549,0.140,0.000,133.000,133.000,34.000,0.000,18.000:
00000000
00000000
00000000
00000000
,
00000000
00000000
00000000
00000000
,
00100010
00000000
10001000
00000000
,
00010001
00000000
01000100
00000000
,
00100010
00000000
00100010
00000000
,
01000100
00000000
01000100
00000000
,
01000100
00000000
01000100
10001000
,
00010001
10001000
00010001
10001000
,
00010001
10001000
01000100
00100010
,
00010001
02200220
00000000
00000000
,
03300330
00000000
00100010
00000000
,
01000100
00000000
00100010
00000000
,
01000100
00000000
10001000
00000000
,
00010001
00000000
10001000
00000000
,
00010001
00000000
00000000
10001000
,
00010001
10001000
01000100
00100010
,
01000100
00100010
00000000
10011001
,
00000000
10001000
10001000
01000100
,
01000100
00010001
00010001
00100010
,
00100010
00000000
00100010
00000000
,
00100010
00000000
00100010
00000000
,
00000000
10001000
10001000
01000100
,
01000100
00010001
00010001
00200020
,
00000000
00000000
00000000
00000000
,
00300030
00000000
10001000
00000000
,
01000100
00000000
01000100
00000000
,
00010001
00000000
00100010
00010001
,
00100010
00000000
01000100
00000000
,
10001000
01000100
02000200
00000000
,
03000300
00100010
00020002
00000000
,
00030003
00000000
10001000
00010001
,
01000100
00100010
01100110
00000000
,
00000000
10001000
01000100
00100010
,
00010001
02200220
00000000
00000000
,
03300330
00000000
00010001
00010001
,
00200020
00000000
00000000
00300030
,
00000000
00010001
01000100
10101010
,
01000100
00100010
01000100
10011001
,
01000100
00110011
10001000
20022002
,
00000000
00000000
30033003
00000000
,
00100010
00000000
01000100
00100010
,
00100010
00200020
00000000
00000000
,
00300030
00000000
01000100
00010001
,
00200020
00000000
10001000
10301030
,
10001000
00000000
00010001
00000000
,
00100010
00000000
00000000
00100010
,
00100010
01000100
01000100
20102010
,
00000000
00000000
00020002
00000000
,
30033003
10001000
01000100
00100010
,
00010001
02200220
00000000
00000000
,
03300330
00000000
00100010
00000000
,
00100010
10001000
01000100
00100010
,
00010001
20002000
00000000
00000000
,
30003000
00000000
00100010
00000000
,
00100010
00000000
00100010
10011001
,
01000100
10011001
00100010
10011001
,
01100110
10011001
00000000
00000000
;

//---------------dance-double - ANOTHER----------------
#NOTES:
     dance-double:
     ANOTHER:
     Medium:
     5:
     0.334,0.372,0.755,0.281,0.002,183.000,183.000,68.000,0.000,73.000:
00000000
00000000
00000000
00000000
,
00000000
00000000
00100010
00100010
,
00100010
10001000
10001000
10001000
,
00010001
00010001
00010001
01000100
,
01000100
01000100
00100010
10001000
,
01000100
00010001
01000100
10001000
,
00100010
00010001
01000100
10011001
,
00010001
10011001
01000100
10011001
,
00100010
00000000
10001000
10001000
01000100
00100010
00000000
10011001
,
00000000
02200220
00000000
00000000
00000000
00000000
00000000
00000000
,
03300330
00000000
00100010
01000100
,
00010001
01000100
10001000
01000100
,
01000100
00100010
01010101
10011001
,
00110011
10001000
01000100
00010001
,
00010001
00000000
00000000
10011001
,
00010001
01100110
01000100
01100110
,
11001100
00110011
00000000
10011001
,
00000000
10011001
10011001
01100110
,
01100110
10011001
01010101
10201020
,
02000200
03300330
00100010
00010001
,
00100010
00010001
00100010
00010001
,
01000100
10001000
10011001
01000100
,
01100110
00010001
01010101
02200220
,
00000000
00000000
00000000
00000000
,
03300330
00000000
00000000
10001000
00010001
20002000
30003000
00000000
,
00100010
02000200
03000300
00000000
00100010
02000200
03000300
00000000
,
00010001
00200020
00300030
00000000
00100010
00000000
20002000
30003000
,
00100010
00000000
00000000
00000000
01000100
01100110
01000100
00000000
,
10001000
01000100
02200220
00000000
,
03300330
00110011
20022002
00000000
,
30033003
00000000
00000000
00000000
10001000
10001000
00020002
00000000
,
00030003
02000200
00000000
03000300
01100110
00000000
00000000
00000000
,
00000000
00000000
10001000
10001000
01000100
00100010
00000000
10011001
,
00000000
02200220
00000000
00000000
00000000
00000000
00000000
00000000
,
03300330
00000000
00000000
00000000
00010001
00010001
00000000
02200220
,
00000000
00000000
00000000
00000000
,
03300330
01010101
11001100
10101010
,
00110011
10101010
11001100
01010101
,
00110011
00000000
00000000
00000000
00000000
00000000
00000000
00000000
00000000
00000000
00000000
00000000
00000000
00000000
00000000
00000000
10011001
00000000
00000000
00000000
00000000
00000000
00000000
00000000
00000000
00000000
00000000
00000000
00000000
00000000
00000000
00000000
01100110
00000000
00000000
00000000
00000000
00000000
00000000
00000000
00000000
00000000
00000000
00000000
00000000
00000000
00000000
00000000
00000000
20022002
00000000
00000000
00000000
00000000
00000000
00000000
00000000
00000000
00000000
00000000
00000000
00000000
00000000
00000000
,
00000000
30033003
00000000
00100010
,
01000100
00000000
00100010
01000100
00100010
10001000
00000000
00100010
,
00000000
20202020
00000000
00000000
00000000
00000000
00000000
00000000
,
30303030
00000000
01100110
00000000
00010001
00010001
00000000
00020002
,
00000000
00000000
10001000
10001000
10001000
10001000
00000000
01000100
,
00030003
11001100
00010001
00000000
10011001
00010001
00000000
00000000
,
10011001
10001000
00000000
00000000
01100110
00200020
00300030
01100110
,
00000000
10011001
00000000
10011001
00000000
20202020
00000000
00000000
,
00000000
00300030
00020002
00000000
,
30033003
00000000
10001000
10001000
01000100
00100010
00000000
10011001
,
00000000
00220022
00000000
00000000
00000000
00000000
00000000
00000000
,
00330033
00000000
00100010
00000000
,
00100010
00000000
10001000
10001000
01000100
00100010
00000000
10011001
,
00000000
22002200
00000000
00000000
00000000
00000000
00000000
00000000
,
33003300
10001000
00100010
10001000
,
00100010
00010001
00100010
10011001
,
01000100
00000000
10011001
00000000
00100010
00000000
10011001
10011001
,
01100110
01100110
10011001
10011001
00000000
00000000
00000000
00000000
;

//---------------dance-double - MANIAC----------------
#NOTES:
     dance-double:
     MANIAC:
     Hard:
     7:
     0.553,0.605,1.000,0.528,0.014,287.000,287.000,128.000,0.000,145.000:
00000000
00000000
00000000
00000000
,
00100010
00010001
01000100
10001000
00100010
00010001
01000100
10001000
,
00100010
00010001
01000100
10001000
00100010
00010001
01000100
10001000
,
00100010
00010001
01000100
10001000
00100010
00010001
01000100
10001000
,
00100010
00010001
01000100
10001000
00100010
10001000
01000100
00010001
,
00100010
10001000
01000100
00010001
00100010
10001000
10001000
00100010
,
00100010
00010001
00010001
01000100
01000100
00100010
10011001
00010001
,
00010001
00010001
10011001
00100010
01000100
00010001
20202020
30303030
,
22002200
33003300
10101010
10011001
01100110
20202020
30303030
20022002
,
30033003
02200220
00000000
00000000
00000000
00000000
00000000
00000000
,
03300330
00010001
10001000
10101010
00100010
01010101
01000100
00010001
,
00010001
01000100
01000100
10001000
10001000
00100010
01000100
00100010
,
01000100
10001000
00100010
10001000
01010101
00100010
10011001
10001000
,
00110011
10001000
11001100
01000100
01000100
00010001
00110011
00100010
,
00110011
00010001
01000100
10001000
00100010
00010001
00020002
10001000
,
00030003
00100010
02100210
00100010
03000300
01000100
01200120
01000100
,
21302130
00100010
32023202
00000000
03030303
00000000
10011001
00000000
,
00000000
10011001
01010101
10101010
,
10101010
10011001
01010101
10201020
,
00020002
00000000
00330033
00000000
00100010
00100010
00010001
00010001
,
00100010
00100010
00010001
00010001
00100010
00100010
00010001
00010001
,
01000100
00100010
10011001
00010001
,
01100110
10001000
01010101
02200220
,
00000000
03000300
10001000
00010001
,
10301030
00000000
00000000
10101010
00110011
22002200
33003300
00000000
,
00110011
02200220
03300330
00000000
00110011
02020202
03030303
00000000
,
00010001
20202020
30303030
00000000
01100110
00000000
20022002
30033003
,
00110011
00000000
00000000
00000000
01010101
01100110
01010101
00000000
,
10011001
01100110
01200120
10001000
,
01300130
00110011
20022002
00000000
,
30033003
00000000
00000000
00000000
10001000
10001000
01020102
00000000
,
00030003
12001200
00000000
03000300
01200120
00000000
10001000
00000000
,
00310031
00000000
10101010
10011001
01100110
20202020
30303030
20022002
,
30033003
02200220
00000000
00000000
00000000
00000000
00000000
00000000
,
03300330
00000000
10001000
00000000
00010001
00010001
00000000
02200220
,
00000000
00000000
00000000
00000000
,
03300330
00000000
01010101
00100010
11001100
01000100
10101010
00100010
,
00110011
01000100
10101010
00010001
11001100
10001000
01010101
00010001
,
00110011
00000000
00000000
00000000
00000000
00000000
00000000
00000000
00000000
00000000
00000000
00000000
00000000
00000000
00000000
00000000
10011001
00000000
00000000
00000000
00000000
00000000
00000000
00000000
00000000
00000000
00000000
00000000
00000000
00000000
00000000
00000000
01100110
00000000
00000000
00000000
00000000
00000000
00000000
00000000
00000000
00000000
00000000
00000000
00000000
00000000
00000000
00000000
00000000
20022002
00000000
00000000
00000000
00000000
00000000
00000000
00000000
00000000
00000000
00000000
00000000
00000000
00000000
00000000
,
00000000
30033003
00010001
01100110
,
01100110
00000000
00110011
10101010
00110011
10011001
00000000
01100110
,
00000000
10201020
00000000
00000000
00010001
00000000
00010001
00000000
,
01300130
00000000
01100110
00000000
00110011
01010101
00000000
10021002
,
00000000
00000000
10001000
01000100
00100010
01000100
00000000
01000100
,
00030003
11001100
00010001
00000000
10011001
00110011
00000000
00000000
,
10011001
11001100
00000000
00000000
01100110
20202020
30303030
00110011
,
00000000
10011001
00000000
01010101
00000000
20202020
00000000
00000000
,
00000000
00300030
00020002
00000000
,
30033003
00000000
10101010
10011001
01100110
20202020
30303030
20022002
,
30033003
01200120
00000000
00000000
10001000
00000000
00010001
00000000
,
10301030
00010001
01100110
10001000
,
01000100
00000000
01010101
01100110
10011001
02020202
03030303
02200220
,
03300330
20022002
00000000
00030003
00010001
00000000
00010001
00000000
,
30013001
00000000
10001000
00010001
00100010
01000100
10001000
00010001
,
00100010
01000100
00010001
00100010
00100010
01000100
10011001
01100110
,
01000100
00000000
01100110
00000000
10011001
00000000
00110011
00000000
00100010
00000000
11001100
10001000
00010001
10001000
00010001
00100010
,
01000100
00100010
01000100
00010001
10011001
10001000
10011001
00000000
00000000
00000000
00000000
00000000
00000000
00000000
00000000
00000000
;

//---------------dance-single - Hard----------------
#NOTES:
     dance-single:
     Hard:
     Hard:
     10:
     0.387,0.440,0.087,0.000,0.663,635.000,21.000,0.000,0.000,0.000:
0000
0000
0000
0000
,
0000
0000
0000
0000
,
0000
0000
0000
0000
,
0000
0000
0000
0000
,
0000
0000
0000
0000
,
0000
0000
0000
0000
,
0000
0000
0000
0000
,
0000
0000
0000
0000
,
1001
0000
0000
0010
0000
0000
0000
0010
0000
0000
0000
0100
0000
0000
0000
0100
,
0000
0000
0000
1000
0000
0000
0000
1000
0000
0000
0000
1000
0000
0000
0000
1000
,
0000
0000
0000
0100
0000
0000
0000
0100
0000
0000
0000
0010
0000
0000
0000
0010
,
0000
0000
0000
0001
0000
0000
0000
0001
0000
0000
0000
0001
0000
0000
0000
0001
,
0000
0000
0000
0010
0000
0000
0000
0010
0000
0000
0000
0100
0000
0000
0000
0100
,
0000
0000
0000
1000
0000
0000
0000
1000
0000
0000
0000
1000
0000
0000
0000
1000
,
0000
0000
0000
0100
0000
0000
0000
0100
0000
0000
0000
0010
0000
0000
0000
0010
,
0000
0000
0000
0001
0000
0000
0000
0001
0000
0000
0000
0001
0000
0000
0000
0001
,
0000
0000
0000
0100
0000
0000
0000
0100
0000
0000
0000
0010
0000
0000
0000
0010
,
0000
0000
0000
1000
0000
0000
0000
1000
0000
0000
0000
1000
0000
0000
0000
1000
,
0000
1001
1000
1000
0100
0010
0001
0100
,
0010
1000
0100
0010
0001
1000
0000
0000
,
0000
0000
0010
1000
0010
0100
0010
0100
0001
1000
0010
0100
0001
0100
0010
1000
,
0001
0010
0100
0010
0001
1000
0010
0100
0001
0010
0100
1000
0010
0100
1000
0100
,
0010
0001
0001
0010
0100
1000
0100
0010
0001
0010
0100
1000
0001
0010
0100
1000
,
0001
0010
0100
1000
0001
0010
0100
1000
0001
0010
0100
1000
0100
1000
0100
1000
,
0100
0010
0010
0001
1000
0100
0010
0001
0010
0001
0100
0010
1000
0001
0100
0010
,
1000
0001
0100
0010
1000
0001
0010
0100
1000
0010
0100
0001
0010
0100
1000
0010
,
0100
0001
0010
0100
1000
0100
0010
0001
1000
0001
0010
0100
0010
0001
1000
0010
,
0100
0010
1000
0100
0010
0100
1000
0100
0010
0001
0010
0001
0010
0001
0010
0001
,
0010
0001
0010
0100
1000
0100
0010
0100
0010
0100
0010
0100
0010
1000
0100
0010
,
0001
1000
0001
0010
0100
1000
0010
0100
0001
0100
0010
0100
0001
1000
0010
0100
,
0001
0100
0010
1000
0001
0010
0100
0010
0001
1000
0010
0100
0001
0100
0010
1000
,
0001
0100
0010
0100
0001
1000
0001
0010
0100
1000
0001
0010
0100
1000
0100
0010
,
0100
1000
0010
0100
0010
0100
1000
0001
0100
0010
0100
0001
1000
0010
0100
0010
,
0100
0001
1000
0001
0010
0100
0010
0001
1000
0001
0100
0010
0100
0010
0100
0001
,
1000
0001
0000
0000
1010
0000
0110
0000
0011
0000
0110
0000
1010
0000
0110
0000
,
0011
0110
1010
0101
0110
0011
1100
1010
,
0101
0100
0010
0100
0010
0110
0000
1000
0000
0000
0000
1000
0000
0000
0000
0100
,
0000
0000
0000
0100
0000
0000
0000
0001
0000
0000
0000
0001
0000
0000
0000
0001
,
0000
0000
0000
0001
0000
0000
0000
1000
0000
0000
0000
1000
0000
0000
0000
0100
,
0000
0000
0000
0100
0000
0000
0000
0010
0000
0000
0000
0010
0000
0000
0000
0010
,
0000
0000
0000
0010
0000
0000
0000
0001
0000
0000
0000
0001
0000
0000
0000
0010
,
0000
0000
0000
0010
0000
0000
0000
1000
0000
0000
0000
1000
0000
0000
0000
1010
,
0000
0000
0000
1010
0000
0000
0100
0000
0010
0000
1000
0010
0100
0001
0000
0000
,
0010
0000
1000
0000
0010
0000
0100
0000
0010
0000
0001
0010
0100
1000
0000
0000
,
0001
0000
0010
0000
0100
0000
1000
0000
1000
0000
1000
0010
0100
0001
0000
0000
,
0010
0000
0100
0000
0010
0000
0100
0000
0010
0000
0001
0010
0100
1000
0000
0000
,
1000
0000
0001
0000
1000
0000
0001
0000
1000
0000
0001
0010
0100
1000
0000
0000
,
1000
0000
0010
0000
0100
0000
0001
0000
0001
0000
1000
0010
0100
0001
0000
0000
,
0010
0000
0100
0000
0010
0000
0000
1000
0010
0100
0001
1000
0100
0010
0001
1000
,
0010
0100
0001
0100
0010
1000
0001
0100
0010
1000
0001
0010
0100
1000
0001
1000
,
0010
0100
0001
0010
0100
1000
0001
0100
0010
0100
0001
1000
0100
1000
0010
0100
,
0001
0010
0100
1000
0010
0100
0001
0010
0100
1000
0010
0100
0001
0010
0100
1000
,
0001
0010
0100
1000
0001
0010
0100
1000
0010
0100
0001
0010
0100
1000
0010
0100
,
0001
0010
0100
0010
0100
0010
0100
0001
0010
0100
1000
0010
0100
0001
0010
0100
,
1000
0010
0100
0001
1000
0010
0100
0001
1000
0010
0100
0001
0010
0100
1000
0100
,
0010
0001
0010
0100
1000
0001
0010
0100
1000
0001
0010
0100
1000
0010
0100
0001
,
1000
0010
0100
0001
1000
0010
0100
0001
1000
0010
0100
0001
0010
0100
1000
0010
,
0100
0001
0100
0010
0100
0010
1000
0001
0010
0100
0010
0001
1000
0010
0100
0001
,
0010
0100
1000
0001
1000
0010
0100
0001
0010
0100
1000
1000
0010
0001
0100
1000
,
0010
0001
0001
0010
0100
1000
0001
1000
0100
0010
0001
1000
0001
0010
0100
1000
,
0010
0100
0010
1000
0001
0010
0100
0010
0001
0010
0100
1000
0010
0100
0001
0010
,
0100
1000
0001
0100
0010
0100
0001
1000
0010
0100
0001
0100
0010
1000
0001
0100
,
0010
1000
0001
0100
0010
1000
0001
0100
0010
1000
0001
0010
0100
1000
0010
0100
,
0010
1000
0010
0100
0001
1000
0010
0010
0001
0010
0100
1000
0001
0010
0100
1000
,
0001
0010
0100
1000
0001
0010
0100
1000
0010
0110
0000
0000
0000
0000
0000
0000
;

//---------------dance-single - Standard----------------
#NOTES:
     dance-single:
     Standard:
     Medium:
     9:
     0.227,0.267,0.008,0.000,0.206,383.000,2.000,0.000,0.000,0.000:
0000
0000
0000
0000
,
0000
0000
0000
0000
,
0000
0000
0000
0000
,
0000
0000
0000
0000
,
0000
0000
0000
0000
,
0000
0000
0000
0000
,
0000
0000
0000
0000
,
0000
0000
0000
0000
,
0000
0000
0000
0010
0000
0000
0000
0010
0000
0000
0000
0100
0000
0000
0000
0100
,
0000
0000
0000
1000
0000
0000
0000
1000
0000
0000
0000
1000
0000
0000
0000
1000
,
0000
0000
0000
0100
0000
0000
0000
0100
0000
0000
0000
0010
0000
0000
0000
0010
,
0000
0000
0000
0001
0000
0000
0000
0001
0000
0000
0000
0001
0000
0000
0000
0001
,
0000
0000
0000
0010
0000
0000
0000
0010
0000
0000
0000
0100
0000
0000
0000
0100
,
0000
0000
0000
1000
0000
0000
0000
1000
0000
0000
0000
1000
0000
0000
0000
1000
,
0000
0000
0000
0100
0000
0000
0000
0100
0000
0000
0000
0010
0000
0000
0000
0010
,
0000
0000
0000
0001
0000
0000
0000
0001
0000
0000
0000
0001
0000
0000
0000
0001
,
0000
0000
0000
0100
0000
0000
0000
0100
0000
0000
0000
0010
0000
0000
0000
0010
,
0000
0000
0000
1000
0000
0000
0000
1000
0000
0000
0000
1000
0000
0000
0000
1000
,
0000
1000
0001
1000
0100
0010
0001
0100
,
0010
1000
0100
0010
0001
1000
0000
0000
,
0000
0000
0000
1000
0000
0000
0100
0000
0000
0010
0000
0000
0000
0000
0000
0001
0100
0000
0000
0000
0000
0100
0010
0000
,
0000
0000
0000
0000
0000
0000
0010
0000
0000
0100
0000
0000
0010
0000
0000
0000
0000
0000
1000
0000
0001
0000
0000
0000
0000
0000
0000
0000
0000
0000
1000
0000
0000
0001
0000
0000
1000
0000
0000
0001
0000
0000
1000
0000
0000
0000
0000
0000
,
0000
0010
0001
0010
0001
0010
0100
0010
,
0100
1000
0100
1000
0010
0100
0010
0100
,
0010
0000
0100
0000
0000
1000
0000
0100
0000
0010
0000
0001
0000
0100
0010
0100
,
0000
0000
0000
0001
0000
0000
1000
0000
0000
0010
0000
0000
0000
0000
0000
0000
0000
0000
0100
0000
0010
0000
0000
0000
0000
0000
0000
0000
0000
0000
0001
0000
0000
1000
0000
0000
0001
0000
0000
1000
0000
0000
0001
0000
0000
0000
0000
0000
,
0100
0000
0010
0000
0000
0000
0100
0000
0000
0010
0000
0000
0100
0000
0000
0010
0000
0000
0100
0000
0000
0001
0000
0000
,
0100
0001
0010
0001
0010
0001
0010
0001
,
0010
0001
0100
0001
1000
0010
0100
0010
,
0100
0010
0100
0001
0100
0001
0100
0001
,
0100
0001
1000
0100
1000
0100
0010
0100
,
0010
0001
0010
0001
0010
0001
0010
0001
,
0010
0001
0010
0100
0010
0100
1000
0100
,
1000
0100
1000
0010
0100
0010
0100
0010
,
0100
0010
0100
0001
0100
0001
0100
0001
,
0010
0001
0010
0001
0010
0100
0010
0100
,
1000
0000
0100
0000
1001
0000
0000
1000
0000
0000
0000
1000
0000
0000
0000
0100
,
0000
0000
0000
0100
0000
0000
0000
0001
0000
0000
0000
0001
0000
0000
0000
0001
,
0000
0000
0000
0001
0000
0000
0000
1000
0000
0000
0000
1000
0000
0000
0000
0100
,
0000
0000
0000
0100
0000
0000
0000
0010
0000
0000
0000
0010
0000
0000
0000
0010
,
0000
0000
0000
0010
0000
0000
0000
0001
0000
0000
0000
0001
0000
0000
0000
0010
,
0000
0000
0000
0010
0000
0000
0000
1000
0000
0000
0000
1000
0000
0000
0000
1000
,
0000
0000
0000
1000
0000
0000
0100
0000
0010
0000
1000
0000
0100
0000
0001
0000
,
0010
1000
0010
0100
0010
0001
0100
1000
,
0100
0010
0100
1000
1000
1000
0100
0001
,
0010
0100
0010
0100
0010
0001
0000
0000
,
1000
1000
0100
0010
0000
0010
0001
0001
,
0000
0100
1000
1000
0000
0000
0000
0000
,
0000
0000
0000
0000
0000
0000
0000
0000
0000
1000
0000
0000
0100
0000
0000
0010
0000
0000
0000
0000
0000
0001
0100
0000
,
0000
0000
0000
0000
0000
0000
0100
0000
0010
0000
0000
0000
0000
0000
0000
0000
0000
0000
0010
0000
0000
0100
0000
0000
0010
0000
0000
0000
0000
0000
1000
0000
0001
0000
0000
0000
0000
0000
0000
0000
0000
0000
1000
0000
0000
0001
0000
0000
,
1000
0001
1000
0000
0000
0000
0010
0000
0001
0000
0010
0000
0001
0000
0010
0000
,
0100
0010
0100
1000
0100
1000
0010
0100
,
0010
0000
0100
0000
0010
0000
0100
0000
0000
1000
0000
0100
0000
0010
0000
0001
,
0000
0000
0000
0100
0000
0000
0010
0000
0000
0100
0000
0000
0000
0000
0000
0001
0000
0000
1000
0000
0000
0010
0000
0000
0000
0000
0000
0000
0000
0000
0100
0000
0010
0000
0000
0000
0000
0000
0000
0000
0000
0000
0001
0000
0000
1000
0000
0000
,
0001
0000
0000
1000
0000
0000
0001
0000
0000
0000
0000
0000
0100
0000
0000
0000
0010
0000
0000
0000
0000
0000
0000
0000
0100
0000
0000
0000
0000
0000
0010
0000
0000
0000
0000
0000
0100
0000
0000
0000
0000
0000
0010
0000
0000
0000
0000
0000
,
0100
0001
0100
0001
0010
0001
0010
0001
,
0010
0001
0010
0001
0100
0001
1000
0010
,
0100
0010
0100
0010
0100
0001
0100
0001
,
0100
0001
0100
0001
1000
0100
1000
0100
,
0010
0100
0010
0001
0010
0001
0010
0001
,
0010
0001
0010
0001
0010
0100
0010
0100
,
1000
0100
1000
0100
1000
0010
0100
0010
,
0100
0010
0100
0010
0100
0001
0100
0001
,
0100
0001
0010
0001
0010
0001
0010
0100
,
0010
0100
1000
0001
1000
1001
0000
0000
;
